Quick Browse
Movies
TV shows
Music
Games
Applications
Anime
Other

Verified torrent Blair.Witch.2016.iTALiAN.BDRiP.XviD-HDi.avi


    Seeders : 0      Leechers : 0

Trackers List

Tracker NameLast CheckStatusSeedersLeechers




Torrent File Content (1 file)


     Blair.Witch.2016.iTALiAN.BDRiP.XviD-HDi.avi -
1.65 GB



Description




Blair Witch (2016).avi BDRip AC3 - ITA





http://s23.postimg.org/mrmy3e1p7/Dy_Ue_U88.jpg



DATA USCITA: 21 settembre 2016
GENERE: Horror, Thriller
ANNO: 2016
REGIA: Adam Wingard
ATTORI: Corbin Reid, Wes Robinson, Valorie Curry, James Allen McCune, Callie Hernandez, Brandon Scott
SCENEGGIATURA: Simon Barrett
FOTOGRAFIA: Robby Baumgartner
MONTAGGIO: Louis Cioffi
PRODUZIONE: Lionsgate.
DISTRIBUZIONE: Eagle Pictures.
PAESE: USA
DURATA: 90 Min

Trama:

Un gruppo di studenti universitari si avventura nella foresta di Black Hills, nel Maryland, per cercare di svelare il mistero legato alla sparizione della sorella di James Donahue, Heather, avvenuta 17 anni prima e che in molti pensano sia collegata alla leggenda della Strega di Blair. Il gruppo è inizialmente ottimista, soprattutto quando alcuni abitanti del posto si offrono di guidarli nella foresta. Nel corso di una notte infinita, però, i ragazzi iniziano a sentire intorno a loro una presenza sinistra e lentamente si rendono conto che la leggenda è molto più reale e inquietante di quanto potessero immaginare.


Blair.Witch.2016.iTALiAN.BDRiP.XviD-HDi.avi

Fonte Video & Audio: BLURAY
Qualità : BDRip
Tracce Audio: iTA AC3 640 Kbps 6CH
Format : XviD
Sub : iTA
Sub Forced: NO

http://s27.postimg.org/uo59mg2ar/Blair_Witch_2016_i_TALi_AN_BDRi_P_Xvi_D_HDi_00_22_59.jpg
http://s27.postimg.org/er6hpq9wj/Blair_Witch_2016_i_TALi_AN_BDRi_P_Xvi_D_HDi_00_44_40.jpg
http://s27.postimg.org/94a4s97dv/Blair_Witch_2016_i_TALi_AN_BDRi_P_Xvi_D_HDi_01_07_02.jpg




General
Complete name : Blair.Witch.2016.iTALiAN.BDRiP.XviD-HDi.avi
Format : AVI
Format/Info : Audio Video Interleave
File size : 1.65 GiB
Duration : 1h 29mn
Overall bit rate : 2 655 Kbps
Writing application : VirtualDubMod 1.5.10.2 (build 2540/release)
Writing library : VirtualDubMod build 2540/release

Video
ID : 0
Format : MPEG-4 Visual
Format profile : Advanced [email protected]
Format settings, BVOP : 1
Format settings, QPel : No
Format settings, GMC : No warppoints
Format settings, Matrix : Default (H.263)
Codec ID : XVID
Codec ID/Hint : XviD
Duration : 1h 29mn
Bit rate : 2 006 Kbps
Width : 704 pixels
Height : 384 pixels
Display aspect ratio : 16:9
Frame rate : 23.976 fps
Color space : YUV
Chroma subsampling : 4:2:0
Bit depth : 8 bits
Scan type : Progressive
Compression mode : Lossy
Bits/(Pixel*Frame) : 0.310
Stream size : 1.25 GiB (76%)
Writing library : XviD 67

Audio
ID : 1
Format : AC-3
Format/Info : Audio Coding 3
Mode extension : CM (complete main)
Codec ID : 2000
Duration : 1h 29mn
Bit rate mode : Constant
Bit rate : 640 Kbps
Channel(s) : 6 channels
Channel positions : Front: L C R, Side: L R, LFE
Sampling rate : 48.0 KHz
Bit depth : 16 bits
Compression mode : Lossy
Stream size : 408 MiB (24%)
Alignment : Split accross interleaves
Interleave, duration : 42 ms (1.00 video frame)
Interleave, preload duration : 500 ms




Related torrents

Torrent NameAddedSizeSeedLeechHealth
24 days ago - in Movies2.04 GB00
26 days ago - in Movies1.7 GB834
26 days ago - in Movies1.59 GB1240
26 days ago - in Movies2.18 GB935
Last Month - in Movies1.98 GB00

Comments (0 Comments)




Latest Searches